追蹤
When I Look At You...
關於部落格
It always has been.
  • 213431

    累積人氣

  • 0

    今日人氣

    1

    追蹤人氣

女神Avril Lavigne最新MV Alice HD1080以及多版本下載!

HD 1080
檔案大小: 175MB左右
格式為AVI檔
1920x1080
http://www.megaupload.com/?d=RNMZORQF
( 如空白頁面請按右鍵>編碼>轉為Unicode(UTF-8) )
如有This service is temporarily not available from your service area.這情況可見
你可以用代理去下載@@
http://blog.yam.com/akorka/article/21331119
亦都可以用佢既下載軟件黎下載
http://blog.yam.com/akorka/article/21353014

http://www.rayfile.com/en/files/2f5678eb-1c9f-11df-bf52-0015c55db73d/

http://rapidshare.com/files/352752054/Avril_Lavigne_-_Alice.avi.html

MD5: 00D0D306315A9C65A11142545C29B4C9

General
       Complete name : D:DownloadsAvril Lavigne - Alice.avi
       Format : AVI
       Format/Info : Audio Video Interleave
       File size : 175 MiB
       Duration : 3mn 39s
       Overall bit rate : 6 685 Kbps
       Writing application : MEncoder SVN-r29352(20090610-gcc4.3.3)
       Writing library : MPlayer
    Video #0
       ID : 0
       Format : MPEG-4 Visual
       Format profile : AdvancedSimple@L5
       Format settings, BVOP : Yes
       Format settings, QPel : No
       Format settings, GMC : No warppoints
       Format settings, Matrix : Default (H.263)
       Codec ID : XVID
       Codec ID/Hint : XviD
       Duration : 3mn 39s
       Bit rate : 6 545 Kbps
       Width : 1 920 pixels
       Height : 1 080 pixels
       Display aspect ratio : 16:9
       Frame rate : 30.000 fps
       Resolution : 24 bits
       Colorimetry : 4:2:0
       Scan type : Progressive
       Bits/(Pixel*Frame) : 0.105
       Stream size : 172 MiB (98%)
       Writing library : XviD 1.2.1 (UTC 2008-12-04)
    Audio #1
       ID : 1
       Format : MPEG Audio
       Format version : Version 1
       Format profile : Layer 3
       Codec ID : 55
       Codec ID/Hint : MP3
       Duration : 3mn 39s
       Bit rate mode : Constant
       Bit rate : 128 Kbps
       Channel(s) : 2 channels
       Sampling rate : 44.1 KHz
       Resolution : 16 bits
       Video delay : 33ms
       Stream size : 3.36 MiB (2%)
       Alignment : Aligned on interleaves
       Interleave, duration : 26 ms (0.78 video frame)
       Interleave, preload duration : 522 ms
       Writing library : LAME3.98

1080版
檔案大小: 95MB
檔案格式: MP4
http://www.avrilsmusic.net/img/medias/medias/alice_videoclip.rar

http://www.rayfile.com/files/233f1466-1c2e-11df-a83d-0015c55db73d/

D:Downloadsalice_videoclip.mp4
   General
      Complete name : D:Downloadsalice_videoclip.mp4
      Format : MPEG-4
      Format profile : Base Media / Version 2
      Codec ID : mp42
      File size : 92.8 MiB
      Duration : 3mn 40s
      Overall bit rate : 3 537 Kbps
      Encoded date : UTC 2010-02-16 10:42:19
      Tagged date : UTC 2010-02-16 10:42:19
      gsst : 0
      gstd : 220541
      gssd : BBE2D0005HH
   Video #2
      ID : 2
      Format : AVC
      Format/Info : Advanced Video Codec
      Format profile : [email=High@L4.0]High@L4.0[/email]
      Format settings, CABAC : Yes
      Format settings, ReFrames : 3 frames
      Codec ID : avc1
      Codec ID/Info : Advanced Video Coding
      Duration : 3mn 40s
      Bit rate mode : Variable
      Bit rate : 3 412 Kbps
      Maximum bit rate : 6 795 Kbps
      Width : 1 920 pixels
      Height : 1 080 pixels
      Display aspect ratio : 16:9
      Frame rate mode : Constant
      Frame rate : 29.970 fps
      Resolution : 24 bits
      Colorimetry : 4:2:0
      Scan type : Progressive
      Bits/(Pixel*Frame) : 0.055
      Stream size : 89.5 MiB (96%)
      Title : (C) 2007 Google Inc. v08.13.2007.
      Encoded date : UTC 2010-02-16 10:42:19
      Tagged date : UTC 2010-02-16 10:42:24
   Audio #1
      ID : 1
      Format : AAC
      Format/Info : Advanced Audio Codec
      Format version : Version 4
      Format profile : LC
      Format settings, SBR : No
      Codec ID : 40
      Duration : 3mn 40s
      Bit rate mode : Variable
      Bit rate : 121 Kbps
      Maximum bit rate : 192 Kbps
      Channel(s) : 2 channels
      Channel positions : L R
      Sampling rate : 44.1 KHz
      Resolution : 16 bits
      Stream size : 3.19 MiB (3%)
      Title : (C) 2007 Google Inc. v08.13.2007.
      Encoded date : UTC 2010-02-16 10:42:19
      Tagged date : UTC 2010-02-16 10:42:24

用1080版壓制的720x420版
檔案大小: 93MB
檔案格式: mkv

http://www.rayfile.com/zh-cn/files/fbe17f1e-1c5f-11df-ad44-0015c55db73d/

D:DownloadsAvril Lavigne - Alice.mkv
   General
      Complete name : D:DownloadsAvril Lavigne - Alice.mkv
      Format : Matroska
      File size : 93.1 MiB
      Duration : 3mn 41s
      Overall bit rate : 3 531 Kbps
      Encoded date : UTC 2010-02-18 06:27:37
      Writing application : mkvmerge v2.4.0 ('Fumbling Towards Ecstasy') built on Oct 11 2008 20:13:15
      Writing library : libebml v0.7.7 + libmatroska v0.8.1
   Video #1
      ID : 1
      Format : AVC
      Format/Info : Advanced Video Codec
      Format profile : [email]Main@L4.0[/email]
      Format settings, CABAC : Yes
      Format settings, ReFrames : 2 frames
      Muxing mode : Container profile=Unknown@4.0
      Codec ID : V_MPEG4/ISO/AVC
      Duration : 3mn 40s
      Nominal bit rate : 3 400 Kbps
      Width : 720 pixels
      Height : 480 pixels
      Display aspect ratio : 16:9
      Original display aspect ratio : 1.500
      Frame rate : 23.976 fps
      Standard : NTSC
      Resolution : 24 bits
      Colorimetry : 4:2:0
      Scan type : Progressive
      Bits/(Pixel*Frame) : 0.410
      Writing library : x264 core 58
      Encoding settings : cabac=1 / ref=1 / deblock=1:0:0 / analyse=0x1:0x111 / me=hex / subme=5 / brdo=0 / mixed_ref=0 / me_range=16 / chroma_me=1 / trellis=1 / 8x8dct=0 / cqm=0 / deadzone=21,11 / chroma_qp_offset=0 / threads=1 / nr=0 / decimate=1 / mbaff=0 / bframes=3 / b_pyramid=0 / b_adapt=1 / b_bias=0 / direct=3 / wpredb=1 / bime=1 / keyint=250 / keyint_min=25 / scenecut=40 / rc=2pass / bitrate=3400 / ratetol=1.0 / rceq='blurCplx^(1-qComp)' / qcomp=0.60 / qpmin=10 / qpmax=51 / qpstep=4 / cplxblur=20.0 / qblur=0.5 / ip_ratio=1.40 / pb_ratio=1.30
   Audio #2
      ID : 2
      Format : AAC
      Format/Info : Advanced Audio Codec
      Format version : Version 4
      Format profile : Main
      Codec ID : A_AAC
      Duration : 3mn 41s
      Channel(s) : 2 channels
      Channel positions : L R
      Sampling rate : 44.1 KHz
      Resolution : 16 bits

相簿設定
標籤設定
相簿狀態